Details for this torrent 

For Latest Updates Join Us On Reddit And Follow On Twitter
please report any problem and contact us at [email protected]


We Need Your Help Please Donate And Support US

How.to.Train.Your.Dragon.The.Hidden.World.2019.1080p.BluRay.x264
Type:
Video > Movies
Files:
4
Size:
11.29 GiB (12125980059 Bytes)
Tag(s):
How_to_Train_Your_Dragon_The_H
Uploaded:
2019-04-09 02:42:15 GMT
By:
yerisan710 Trusted
Seeders:
8
Leechers:
3
Comments
1  

Info Hash:
EC86EA285A9141826257BB2A5E8D7B6BE9F38935




(Problems with magnets links are fixed by upgrading your torrent client!)
MediaInfo..>>>>>
Video

ID : 1
Format : AVC
Format/Info : Advanced Video Codec
Format profile : [email protected]
Format settings : CABAC / 4 Ref Frames
Format settings, CABAC : Yes
Format settings, ReFrames : 4 frames
Codec ID : V_MPEG4/ISO/AVC
Duration : 1 h 44 min
Bit rate : 11.5 Mb/s
Width : 1 920 pixels
Height : 816 pixels
Display aspect ratio : 2.35:1
Frame rate mode : Constant
Frame rate : 23.976 (24000/1001) FPS
Color space : YUV
Chroma subsampling : 4:2:0
Bit depth : 8 bits
Scan type : Progressive
Bits/(Pixel*Frame) : 0.306
Stream size : 8.36 GiB (74%)
Title : How.to.Train.Your.Dragon.The.Hidden.World.2019.1080p.BluRay.x264.TrueHD.7.1.Atmos-FGT
Writing library : x264 core 148 r2795M aaa9aa8
Encoding settings : cabac=1 / ref=4 / deblock=1:1:1 / analyse=0x3:0x113

Audio #1

ID : 2
Format : MLP FBA 16-ch
Format/Info : Meridian Lossless Packing FBA with 16-channel presentation
Commercial name : Dolby TrueHD with Dolby Atmos
Codec ID : A_TRUEHD
Duration : 1 h 44 min
Bit rate mode : Variable
Bit rate : 3 312 kb/s
Maximum bit rate : 5 016 kb/s
Channel(s) : 8 channels
Channel layout : L R C LFE Ls Rs Lb Rb
Sampling rate : 48.0 kHz
Frame rate : 1 200.000 FPS (40 SPF)
Compression mode : Lossless
Stream size : 2.41 GiB (21%)
Title : How.to.Train.Your.Dragon.The.Hidden.World.2019.1080p.BluRay.x264.TrueHD.7.1.Atmos-FGT
Language : English
Default : Yes
Forced : No
Number of dynamic objects : 11
Bed channel count : 1 channel
Bed channel configuration : LFE

Audio #2

ID : 3
Format : AC-3
Format/Info : Audio Coding 3
Commercial name : Dolby Digital
Codec ID : A_AC3
Duration : 1 h 44 min
Bit rate mode : Constant
Bit rate : 640 kb/s
Channel(s) : 6 channels
Channel layout : L R C LFE Ls Rs
Sampling rate : 48.0 kHz
Frame rate : 31.250 FPS (1536 SPF)
Bit depth : 16 bits
Compression mode : Lossy
Stream size : 477 MiB (4%)
Title : How.to.Train.Your.Dragon.The.Hidden.World.2019.1080p.BluRay.x264.TrueHD.7.1.Atmos-FGT
Language : English
Service kind : Complete Main
Default : No
Forced : No

Text #1

ID : 4
Format : UTF-8
Codec ID : S_TEXT/UTF8
Codec ID/Info : UTF-8 Plain Text
Duration : 1 h 32 min
Bit rate : 47 b/s
Count of elements : 1100
Stream size : 32.2 KiB (0%)
Title : English-SRT
Language : English
Default : Yes
Forced : No

Text #2

ID : 5
Format : UTF-8
Codec ID : S_TEXT/UTF8
Codec ID/Info : UTF-8 Plain Text
Duration : 1 h 32 min
Bit rate : 59 b/s
Count of elements : 1542
Stream size : 40.2 KiB (0%)
Title : English-SDH-SRT
Language : English
Default : No
Forced : No

Text #3

ID : 6
Format : PGS
Muxing mode : zlib
Codec ID : S_HDMV/PGS
Codec ID/Info : Picture based subtitle format used on BDs/HD-DVDs
Duration : 1 h 32 min
Bit rate : 43.0 kb/s
Count of elements : 3091
Stream size : 28.6 MiB (0%)
Title : English-PGS
Language : English
Default : No
Forced : No

 
https://extraimage.net/images/2019/04/08/6160decbde9584ad1429931f1e18106c.png

you can follow me...
Spanish YG

Go.! Go.! Go.! Go.!

(-1337x-)


(-glodls-)


(-thepiratebay-)


(-ettv.tv-)


(-prostylex-)


*PiRATES_NEVER_DiE!*
*We Just go ON and On and On...FOREVER!*

Comments